<?xml version="1.0" standalone="no"?>
<!DOCTYPE svg PUBLIC "-//W3C//DTD SVG 1.1//EN" "http://www.w3.org/Graphics/SVG/1.1/DTD/svg11.dtd" >
<svg xmlns="http://www.w3.org/2000/svg">
<metadata></metadata>
<defs>
<font id="ace_futurismregular" horiz-adv-x="1024" >
<font-face units-per-em="2048" ascent="1638" descent="-410" />
<missing-glyph horiz-adv-x="650" />
<glyph horiz-adv-x="2048" />
<glyph horiz-adv-x="2048" />
<glyph unicode="&#xd;" horiz-adv-x="2048" />
<glyph unicode=" "  horiz-adv-x="650" />
<glyph unicode="&#x09;" horiz-adv-x="650" />
<glyph unicode="&#xa0;" horiz-adv-x="650" />
<glyph unicode="!" horiz-adv-x="256" d="M0 0v128h128v-128h-128zM0 256v640h128v-640h-128z" />
<glyph unicode="&#x22;" horiz-adv-x="384" d="M64 640l-64 128v128h256v-128l-64 -128l-64 128l-64 -128v0z" />
<glyph unicode="#" d="M640 256v384h-384v-384h384zM128 0v128h-128v128h128v384h-128v128h128v128h128v-128h384v128h128v-128h128v-128h-128v-384h128v-128h-128v-128h-128v128h-384v-128h-128z" />
<glyph unicode="$" d="M512 128v256h-128v-256h128zM768 128v256h-128v-256h128zM256 512v256h-128v-256h128zM512 512v256h-128v-256h128zM256 -128v128h-256v128h256v256h-128l-128 128v256l128 128h128v128h128v-128h128v128h128v-128h256v-128h-256v-256h128l128 -128v-256l-128 -128h-128 v-128h-128v128h-128v-128h-128z" />
<glyph unicode="%" horiz-adv-x="1152" d="M896 128v128h-128v-128h128zM768 0l-128 128v128l128 128h128l128 -128v-128l-128 -128h-128zM256 640v128h-128v-128h128zM128 512l-128 128v128l128 128h128l128 -128v-128l-128 -128h-128zM0 0l896 896h128l-896 -896h-128z" />
<glyph unicode="&#x26;" horiz-adv-x="1152" d="M640 128v256h-512v-256h512zM512 512v256h-256v-256h256zM128 0l-128 128v256l128 128v256l128 128h256l128 -128v-256l128 -128l128 128h128l-256 -256l256 -256h-128l-128 128l-128 -128h-512z" />
<glyph unicode="'" horiz-adv-x="256" d="M64 640l-64 128v128h128v-128l-64 -128v0z" />
<glyph unicode="(" horiz-adv-x="384" d="M128 0l-128 128v640l128 128h128v-128h-128v-640h128v-128h-128z" />
<glyph unicode=")" horiz-adv-x="384" d="M0 0v128h128v640h-128v128h128l128 -128v-640l-128 -128h-128z" />
<glyph unicode="*" horiz-adv-x="256" d="M24 770l14 46l-38 30h48l16 46l14 -46h50l-40 -30l14 -46l-38 28l-40 -28v0z" />
<glyph unicode="+" horiz-adv-x="768" d="M256 128v256h-256v128h256v256h128v-256h256v-128h-256v-256h-128z" />
<glyph unicode="," horiz-adv-x="256" d="M0 -128v256h128v-128l-128 -128v0z" />
<glyph unicode="-" horiz-adv-x="640" d="M0 384v128h512v-128h-512z" />
<glyph unicode="." horiz-adv-x="256" d="M0 0v128h128v-128h-128z" />
<glyph unicode="/" horiz-adv-x="1152" d="M0 0l896 896h128l-896 -896h-128z" />
<glyph unicode="0" d="M768 128v640h-640v-640h640zM128 0l-128 128v640l128 128h640l128 -128v-640l-128 -128h-640z" />
<glyph unicode="1" horiz-adv-x="512" d="M0 0v128h128v640h-128v128h128l128 -128v-640h128v-128h-384z" />
<glyph unicode="2" d="M0 0v384l128 128h640v256h-768v128h768l128 -128v-256l-128 -128h-640v-256h768v-128h-896z" />
<glyph unicode="3" d="M0 0v128h768v256h-640v128h640v256h-512v128h512l128 -128v-640l-128 -128h-768z" />
<glyph unicode="4" d="M512 0v384h-384l-128 128v384h128v-384h384v384h128v-384h256v-128h-256v-384h-128z" />
<glyph unicode="5" d="M0 0v128h768v256h-640l-128 128v384h640v-128h-512v-256h640l128 -128v-256l-128 -128h-768z" />
<glyph unicode="6" d="M768 128v256h-640v-256h640zM128 0l-128 128v640l128 128h512v-128h-512v-256h640l128 -128v-256l-128 -128h-640z" />
<glyph unicode="7" horiz-adv-x="896" d="M640 0v768h-640v128h640l128 -128v-768h-128z" />
<glyph unicode="8" d="M768 128v256h-640v-256h640zM640 512v256h-384v-256h384zM128 0l-128 128v256l128 128v256l128 128h384l128 -128v-256l128 -128v-256l-128 -128h-640z" />
<glyph unicode="9" d="M768 512v256h-640v-256h640zM256 0v128h512v256h-640l-128 128v256l128 128h640l128 -128v-640l-128 -128h-512z" />
<glyph unicode=":" horiz-adv-x="256" d="M0 256v128h128v-128h-128zM0 512v128h128v-128h-128z" />
<glyph unicode=";" horiz-adv-x="256" d="M0 128v256h128v-128l-128 -128v0zM0 512v128h128v-128h-128z" />
<glyph unicode="&#x3c;" horiz-adv-x="512" d="M384 0l-384 384l384 384v-128l-256 -256l256 -256v-128v0z" />
<glyph unicode="=" horiz-adv-x="768" d="M0 256v128h640v-128h-640zM0 512v128h640v-128h-640z" />
<glyph unicode="&#x3e;" horiz-adv-x="512" d="M0 0v128l256 256l-256 256v128l384 -384l-384 -384v0z" />
<glyph unicode="?" d="M384 0v128h128v-128h-128zM384 256v128l128 128h256v256h-640v-128h-128v128l128 128h640l128 -128v-256l-128 -128h-256v-128h-128z" />
<glyph unicode="@" d="M512 384v128h-128v-128h128zM128 0l-128 128v640l128 128h640l128 -128v-384l-128 -128h-512v384h384v-256h128v384h-640v-640h512v-128h-512z" />
<glyph unicode="A" d="M768 512v256h-640v-256h640zM0 0v768l128 128h640l128 -128v-768h-128v384h-640v-384h-128z" />
<glyph unicode="B" d="M768 128v256h-640v-256h640zM512 512v256h-384v-256h384zM0 0v896h512l128 -128v-256h128l128 -128v-256l-128 -128h-768z" />
<glyph unicode="C" horiz-adv-x="896" d="M128 0l-128 128v640l128 128h640v-128h-640v-640h640v-128h-640z" />
<glyph unicode="D" d="M768 128v640h-640v-640h640zM0 0v896h768l128 -128v-640l-128 -128h-768z" />
<glyph unicode="E" d="M0 0v896h384v-128h-256v-256h512v-128h-512v-256h768v-128h-896z" />
<glyph unicode="F" horiz-adv-x="896" d="M0 0v896h768v-128h-640v-256h384v-128h-384v-384h-128z" />
<glyph unicode="G" d="M128 0l-128 128v640l128 128h512v-128h-512v-640h640v256h-384v128h384l128 -128v-256l-128 -128h-640z" />
<glyph unicode="H" d="M0 0v896h128v-384h640v384h128v-896h-128v384h-640v-384h-128z" />
<glyph unicode="I" horiz-adv-x="512" d="M0 0v128h128v640h-128v128h384v-128h-128v-640h128v-128h-384z" />
<glyph unicode="J" d="M128 0l-128 128v256h128v-256h640v768h128v-768l-128 -128h-640z" />
<glyph unicode="K" d="M0 0v896h128v-384h384v384h128v-384h128l128 -128v-384h-128v384h-640v-384h-128z" />
<glyph unicode="L" horiz-adv-x="896" d="M128 0l-128 128v768h128v-768h640v-128h-640z" />
<glyph unicode="M" d="M0 0v768l128 128h640l128 -128v-768h-128v768h-256v-512h-128v512h-256v-768h-128z" />
<glyph unicode="N" d="M0 0v768l128 128h640l128 -128v-768h-128v768h-640v-768h-128z" />
<glyph unicode="O" d="M768 128v640h-640v-640h640zM128 0l-128 128v640l128 128h640l128 -128v-640l-128 -128h-640z" />
<glyph unicode="P" d="M768 512v256h-640v-256h640zM0 0v896h768l128 -128v-256l-128 -128h-640v-384h-128z" />
<glyph unicode="Q" d="M768 128v640h-640v-640h256v256h128v-256h256zM384 -256v256h-256l-128 128v640l128 128h640l128 -128v-640l-128 -128h-256v-256h-128z" />
<glyph unicode="R" d="M512 512v256h-384v-256h384zM0 0v768l128 128h384l128 -128v-256h128l128 -128v-384h-128v384h-640v-384h-128z" />
<glyph unicode="S" d="M0 0v128h768v256h-640l-128 128v256l128 128h512v-128h-512v-256h640l128 -128v-256l-128 -128h-768z" />
<glyph unicode="T" d="M384 0v768h-384v128h896v-128h-384v-768h-128z" />
<glyph unicode="U" d="M128 0l-128 128v768h128v-768h640v768h128v-768l-128 -128h-640z" />
<glyph unicode="V" horiz-adv-x="896" d="M384 0l-384 384v512h128v-512l256 -256l256 256v512h128v-512l-384 -384v0z" />
<glyph unicode="W" d="M128 0l-128 128v768h128v-768h256v384h128v-384h256v768h128v-768l-128 -128h-640z" />
<glyph unicode="X" d="M0 0v256l128 128v128l-128 128v256h128v-256l128 -128h384l128 128v256h128v-256l-128 -128v-128l128 -128v-256h-128v256l-128 128h-384l-128 -128v-256h-128z" />
<glyph unicode="Y" d="M384 0v384h-256l-128 128v384h128v-384h640v384h128v-384l-128 -128h-256v-384h-128z" />
<glyph unicode="Z" d="M0 0v384l128 128h640v256h-768v128h896v-384l-128 -128h-640v-256h768v-128h-896z" />
<glyph unicode="[" horiz-adv-x="384" d="M0 0v896h256v-128h-128v-640h128v-128h-256z" />
<glyph unicode="\" horiz-adv-x="1152" d="M896 0l-896 896h128l896 -896h-128z" />
<glyph unicode="]" horiz-adv-x="384" d="M0 0v128h128v640h-128v128h256v-896h-256z" />
<glyph unicode="^" horiz-adv-x="640" d="M0 640l256 256l256 -256h-128l-128 128l-128 -128h-128z" />
<glyph unicode="_" horiz-adv-x="768" d="M-128 0v128h768v-128h-768z" />
<glyph unicode="`" horiz-adv-x="512" d="M256 640l-256 256h128l256 -256h-128z" />
<glyph unicode="a" d="M768 128v128h-640v-128h640zM128 0l-128 128v128l128 128h640v128h-512v128h512l128 -128v-512h-768z" />
<glyph unicode="b" d="M768 128v384h-640v-384h640zM0 0v896h128v-256h640l128 -128v-384l-128 -128h-768z" />
<glyph unicode="c" horiz-adv-x="896" d="M128 0l-128 128v384l128 128h640v-128h-640v-384h640v-128h-640z" />
<glyph unicode="d" d="M768 128v384h-640v-384h640zM128 0l-128 128v384l128 128h640v256h128v-896h-768z" />
<glyph unicode="e" d="M768 384v128h-640v-128h640zM128 0l-128 128v384l128 128h640l128 -128v-128l-128 -128h-640v-128h512v-128h-512z" />
<glyph unicode="f" horiz-adv-x="512" d="M128 0v512h-128v128h128v128l128 128h128v-128h-128v-128h128v-128h-128v-512h-128z" />
<glyph unicode="g" d="M768 128v384h-640v-384h640zM256 -256v128h512v128h-640l-128 128v384l128 128h768v-768l-128 -128h-512z" />
<glyph unicode="h" d="M0 0v896h128v-256h640l128 -128v-512h-128v512h-640v-512h-128z" />
<glyph unicode="i" horiz-adv-x="256" d="M0 0v640h128v-640h-128zM0 768v128h128v-128h-128z" />
<glyph unicode="j" horiz-adv-x="384" d="M0 -256v128h128v640h-128v128h256v-768l-128 -128h-128zM128 768v128h128v-128h-128z" />
<glyph unicode="k" d="M0 0v896h128v-512h384v256h128v-256h128l128 -128v-256h-128v256h-640v-256h-128z" />
<glyph unicode="l" horiz-adv-x="384" d="M128 0l-128 128v768h128v-768h128v-128h-128z" />
<glyph unicode="m" d="M0 0v640h768l128 -128v-512h-128v512h-256v-384h-128v384h-256v-512h-128z" />
<glyph unicode="n" d="M0 0v640h768l128 -128v-512h-128v512h-640v-512h-128z" />
<glyph unicode="o" d="M768 128v384h-640v-384h640zM128 0l-128 128v384l128 128h640l128 -128v-384l-128 -128h-640z" />
<glyph unicode="p" horiz-adv-x="896" d="M640 128v384h-512v-384h512zM0 -256v896h640l128 -128v-384l-128 -128h-512v-256h-128z" />
<glyph unicode="q" horiz-adv-x="896" d="M640 128v384h-512v-384h512zM640 -256v256h-512l-128 128v384l128 128h640v-896h-128z" />
<glyph unicode="r" horiz-adv-x="896" d="M0 0v512l128 128h640v-128h-640v-512h-128z" />
<glyph unicode="s" d="M0 0v128h768v128h-640l-128 128v128l128 128h512v-128h-512v-128h640l128 -128v-128l-128 -128h-768z" />
<glyph unicode="t" horiz-adv-x="896" d="M256 0l-128 128v384h-128v128h128v128h128v-128h384v-128h-384v-384h512v-128h-512z" />
<glyph unicode="u" d="M128 0l-128 128v512h128v-512h640v512h128v-640h-768z" />
<glyph unicode="v" horiz-adv-x="896" d="M384 0l-384 384v256h128v-256l256 -256l256 256v256h128v-256l-384 -384v0z" />
<glyph unicode="w" d="M128 0l-128 128v512h128v-512h256v384h128v-384h256v512h128v-512l-128 -128h-640z" />
<glyph unicode="x" d="M0 0v128l128 128v128l-128 128v128h128v-128l128 -128h384l128 128v128h128v-128l-128 -128v-128l128 -128v-128h-128v128l-128 128h-384l-128 -128v-128h-128z" />
<glyph unicode="y" d="M256 -256v128h512v128h-640l-128 128v512h128v-512h640v512h128v-768l-128 -128h-512z" />
<glyph unicode="z" d="M0 0v256l128 128h640v128h-768v128h896v-256l-128 -128h-640v-128h768v-128h-896z" />
<glyph unicode="{" horiz-adv-x="512" d="M256 0l-128 128v128l-128 128v128l128 128v128l128 128h128v-128h-128v-128l-128 -128v-128l128 -128v-128h128v-128h-128z" />
<glyph unicode="|" horiz-adv-x="256" d="M0 0v896h128v-896h-128z" />
<glyph unicode="}" horiz-adv-x="512" d="M0 0v128h128v128l128 128v128l-128 128v128h-128v128h128l128 -128v-128l128 -128v-128l-128 -128v-128l-128 -128h-128z" />
<glyph unicode="~" horiz-adv-x="512" d="M0 384v128l128 128l128 -128l128 128v-128l-128 -128l-128 128l-128 -128v0z" />
<glyph unicode="&#xa1;" horiz-adv-x="256" d="M0 0v640h128v-640h-128zM0 768v128h128v-128h-128z" />
<glyph unicode="&#xa2;" horiz-adv-x="896" d="M384 128v384h-256v-384h256zM384 -128v128h-256l-128 128v384l128 128h256v128h128v-128h256v-128h-256v-384h256v-128h-256v-128h-128z" />
<glyph unicode="&#xa3;" d="M0 0v128h128v128h-128v128h128v128h-128v128h128v128l128 128h384v-128h-384v-128h512v-128h-512v-128h512v-128h-512v-128h640v-128h-896z" />
<glyph unicode="&#xa4;" horiz-adv-x="768" d="M0 0v128h128v-128h-128zM512 0v128h128v-128h-128zM384 256v128h-128v-128h128zM256 128l-128 128v128l128 128h128l128 -128v-128l-128 -128h-128zM0 512v128h128v-128h-128zM512 512v128h128v-128h-128z" />
<glyph unicode="&#xa5;" d="M384 0v128h-256v128h256v128h-256v128h256v128h-256l-128 128v128h128v-128h640v128h128v-128l-128 -128h-256v-128h256v-128h-256v-128h256v-128h-256v-128h-128z" />
<glyph unicode="&#xa6;" horiz-adv-x="256" d="M0 0v384h128v-384h-128zM0 512v384h128v-384h-128z" />
<glyph unicode="&#xa7;" d="M768 384v128h-640v-128h640zM128 0l-128 128h768v128h-640l-128 128v384l128 128h640l128 -128h-768v-128h640l128 -128v-384l-128 -128h-640z" />
<glyph unicode="&#xa8;" horiz-adv-x="512" d="M0 1024v128h128v-128h-128zM256 1024v128h128v-128h-128z" />
<glyph unicode="&#xa9;" d="M384 256l-128 128v128l128 128h128l128 -128h-256v-128h256l-128 -128h-128zM768 128v640h-640v-640h640zM128 0l-128 128v640l128 128h640l128 -128v-640l-128 -128h-640z" />
<glyph unicode="&#xaa;" horiz-adv-x="512" d="M256 1024v128h-128v-128h128zM128 896l-128 128v128l128 128h256v-384h-256z" />
<glyph unicode="&#xab;" horiz-adv-x="896" d="M384 0l-384 384l384 384h128l-384 -384l384 -384h-128zM640 0l-384 384l384 384h128l-384 -384l384 -384h-128z" />
<glyph unicode="&#xac;" horiz-adv-x="640" d="M384 384v128h-384v128h512v-256h-128z" />
<glyph unicode="&#xad;" horiz-adv-x="384" d="M0 384v128h256v-128h-256z" />
<glyph unicode="&#xae;" d="M256 256v384h256l128 -128l-128 -128l128 -128h-128l-128 128l128 128h-128v-256h-128zM768 128v640h-640v-640h640zM128 0l-128 128v640l128 128h640l128 -128v-640l-128 -128h-640z" />
<glyph unicode="&#xaf;" horiz-adv-x="896" d="M0 1024v128h896v-128h-896z" />
<glyph unicode="&#xb0;" horiz-adv-x="512" d="M256 1024v128h-128v-128h128zM128 896l-128 128v128l128 128h128l128 -128v-128l-128 -128h-128z" />
<glyph unicode="&#xb1;" d="M0 128v128h896v-128h-896zM384 256v256h-384v128h384v256h128v-256h384v-128h-384v-128l-128 -128v0z" />
<glyph unicode="&#xb2;" horiz-adv-x="512" d="M0 896l256 256h-256v128h256l128 -128l-128 -128h128v-128h-384z" />
<glyph unicode="&#xb3;" horiz-adv-x="512" d="M0 896v128h256l-128 64l128 64h-256v128h256l128 -128v-128l-128 -128h-256z" />
<glyph unicode="&#xb4;" horiz-adv-x="512" d="M0 1024l256 256h128l-256 -256h-128z" />
<glyph unicode="&#xb5;" d="M0 -256v896h128v-384l128 -128h384l128 128v384h128v-640h-128v128l-128 -128h-384l-128 128v-384h-128z" />
<glyph unicode="&#xb6;" horiz-adv-x="768" d="M256 0v384h-128l-128 128v256l128 128h512v-896h-128v768h-128v-768h-128z" />
<glyph unicode="&#xb7;" horiz-adv-x="256" d="M0 384v128h128v-128h-128z" />
<glyph unicode="&#xb8;" horiz-adv-x="384" d="M0 -256v128h128l-128 128h128l128 -128l-128 -128h-128z" />
<glyph unicode="&#xb9;" horiz-adv-x="256" d="M0 896v384h128v-384h-128z" />
<glyph unicode="&#xba;" horiz-adv-x="512" d="M256 1024v128h-128v-128h128zM128 896l-128 128v128l128 128h128l128 -128v-128l-128 -128h-128z" />
<glyph unicode="&#xbb;" horiz-adv-x="896" d="M0 0l384 384l-384 384h128l384 -384l-384 -384h-128zM256 0l384 384l-384 384h128l384 -384l-384 -384h-128z" />
<glyph unicode="&#xbc;" horiz-adv-x="768" d="M0 0v128l128 128h-128v128h128l128 -128l-128 -128h128v-128h-256zM384 0v128h128l-128 128v128h256v-128h-128l128 -128l-128 -128h-128zM280 386l14 46l-38 30h48l16 46l14 -46h50l-40 -30l14 -46v0l-38 28l-40 -28v0zM384 640v128h-128v-128h128zM256 512l-128 128 v128l128 128h128l128 -128v-128l-128 -128h-128z" />
<glyph unicode="&#xbd;" horiz-adv-x="512" d="M0 0v128h128l-128 128v128h384v-128h-128l128 -128l-128 -128h-256zM152 386l14 46l-38 30h48l16 46l14 -46h50l-40 -30l14 -46l-38 28l-40 -28v0zM256 640v128h-128v-128h128zM128 512l-128 128v128l128 128h128l128 -128v-128l-128 -128h-128z" />
<glyph unicode="&#xbe;" horiz-adv-x="768" d="M0 0v128l128 128h-128v128h256v-128l-256 -256v0zM384 0v128h128l-128 128v128h256v-128h-128l128 -128l-128 -128h-128zM280 386l14 46l-38 30h48l16 46l14 -46h50l-40 -30l14 -46l-38 28l-40 -28v0zM384 640v128h-128v-128h128zM256 512l-128 128v128l128 128h128 l128 -128v-128l-128 -128h-128z" />
<glyph unicode="&#xbf;" d="M128 0l-128 128v128l128 128h256v256h128v-256l-128 -128h-256v-128h768l-128 -128h-640zM384 768v128h128v-128h-128z" />
<glyph unicode="&#xc0;" d="M768 512v256h-640v-256h640zM0 0v768l128 128h640l128 -128v-768h-128v384h-640v-384h-128zM512 1024l-256 256h128l256 -256h-128z" />
<glyph unicode="&#xc1;" d="M768 512v256h-640v-256h640zM0 0v768l128 128h640l128 -128v-768h-128v384h-640v-384h-128zM256 1024l256 256h128l-256 -256h-128z" />
<glyph unicode="&#xc2;" d="M768 512v256h-640v-256h640zM0 0v768l128 128h640l128 -128v-768h-128v384h-640v-384h-128zM256 1024v128l128 128h128l128 -128v-128h-128v128h-128v-128h-128z" />
<glyph unicode="&#xc3;" d="M768 512v256h-640v-256h640zM0 0v768l128 128h640l128 -128v-768h-128v384h-640v-384h-128zM128 1024v128l128 128h128l128 -128h128v128h128v-128l-128 -128h-128l-128 128h-128v-128h-128z" />
<glyph unicode="&#xc4;" d="M768 512v256h-640v-256h640zM0 0v768l128 128h640l128 -128v-768h-128v384h-640v-384h-128zM256 1024v128h128v-128h-128zM512 1024v128h128v-128h-128z" />
<glyph unicode="&#xc5;" d="M768 512v256h-640v-256h640zM0 0v768l128 128h640l128 -128v-768h-128v384h-640v-384h-128zM512 1152v128h-128v-128h128zM384 1024l-128 128v128l128 128h128l128 -128v-128l-128 -128h-128z" />
<glyph unicode="&#xc6;" d="M384 512v256h-256v-256h256zM0 0v768l128 128h768v-128h-384v-256h384v-128h-384v-256h384v-128h-512v384h-256v-384h-128z" />
<glyph unicode="&#xc7;" horiz-adv-x="896" d="M256 -256v128h128l-128 128h-128l-128 128v640l128 128h640v-128h-640v-640h640v-128h-384l128 -128l-128 -128h-128z" />
<glyph unicode="&#xc8;" d="M0 0v896h384v-128h-256v-256h512v-128h-512v-256h768v-128h-896zM512 1024l-256 256h128l256 -256h-128z" />
<glyph unicode="&#xc9;" d="M0 0v896h384v-128h-256v-256h512v-128h-512v-256h768v-128h-896zM256 1024l256 256h128l-256 -256h-128z" />
<glyph unicode="&#xca;" d="M0 0v896h384v-128h-256v-256h512v-128h-512v-256h768v-128h-896zM256 1024v128l128 128h128l128 -128v-128h-128v128h-128v-128h-128z" />
<glyph unicode="&#xcb;" d="M0 0v896h384v-128h-256v-256h512v-128h-512v-256h768v-128h-896zM256 1024v128h128v-128h-128zM512 1024v128h128v-128h-128z" />
<glyph unicode="&#xcc;" horiz-adv-x="512" d="M0 0v128h128v640h-128v128h384v-128h-128v-640h128v-128h-384zM256 1024l-256 256h128l256 -256h-128z" />
<glyph unicode="&#xcd;" horiz-adv-x="512" d="M0 0v128h128v640h-128v128h384v-128h-128v-640h128v-128h-384zM0 1024l256 256h128l-256 -256h-128z" />
<glyph unicode="&#xce;" horiz-adv-x="512" d="M0 0v128h128v640h-128v128h384v-128h-128v-640h128v-128h-384zM0 1024v128l128 128h128l128 -128v-128h-128v128h-128v-128h-128z" />
<glyph unicode="&#xcf;" horiz-adv-x="512" d="M0 0v128h128v640h-128v128h384v-128h-128v-640h128v-128h-384zM0 1024v128h128v-128h-128zM256 1024v128h128v-128h-128z" />
<glyph unicode="&#xd0;" horiz-adv-x="1280" d="M1024 128v640h-640v-256h384v-128h-384v-256h640zM256 0v384h-256v128h256v384h768l128 -128v-640l-128 -128h-768z" />
<glyph unicode="&#xd1;" d="M0 0v768l128 128h640l128 -128v-768h-128v768h-640v-768h-128zM128 1024v128l128 128h128l128 -128h128v128h128v-128l-128 -128h-128l-128 128h-128v-128h-128z" />
<glyph unicode="&#xd2;" d="M768 128v640h-640v-640h640zM128 0l-128 128v640l128 128h640l128 -128v-640l-128 -128h-640zM512 1024l-256 256h128l256 -256h-128z" />
<glyph unicode="&#xd3;" d="M768 128v640h-640v-640h640zM128 0l-128 128v640l128 128h640l128 -128v-640l-128 -128h-640zM256 1024l256 256h128l-256 -256h-128z" />
<glyph unicode="&#xd4;" d="M768 128v640h-640v-640h640zM128 0l-128 128v640l128 128h640l128 -128v-640l-128 -128h-640zM256 1024v128l128 128h128l128 -128v-128h-128v128h-128v-128h-128z" />
<glyph unicode="&#xd5;" d="M768 128v640h-640v-640h640zM128 0l-128 128v640l128 128h640l128 -128v-640l-128 -128h-640zM128 1024v128l128 128h128l128 -128h128v128h128v-128l-128 -128h-128l-128 128h-128v-128h-128z" />
<glyph unicode="&#xd6;" d="M768 128v640h-640v-640h640zM128 0l-128 128v640l128 128h640l128 -128v-640l-128 -128h-640zM256 1024v128h128v-128h-128zM512 1024v128h128v-128h-128z" />
<glyph unicode="&#xd7;" horiz-adv-x="896" d="M0 0v128l256 256l-256 256v128h128l256 -256l256 256h128v-128l-256 -256l256 -256v-128h-128l-256 256l-256 -256h-128z" />
<glyph unicode="&#xd8;" d="M768 128v512l-512 -512h512zM128 256l512 512h-512v-512v0zM0 0v768l128 128h768v-768l-128 -128h-768z" />
<glyph unicode="&#xd9;" d="M128 0l-128 128v768h128v-768h640v768h128v-768l-128 -128h-640zM512 1024l-256 256h128l256 -256h-128z" />
<glyph unicode="&#xda;" d="M128 0l-128 128v768h128v-768h640v768h128v-768l-128 -128h-640zM256 1024l256 256h128l-256 -256h-128z" />
<glyph unicode="&#xdb;" d="M128 0l-128 128v768h128v-768h640v768h128v-768l-128 -128h-640zM256 1024v128l128 128h128l128 -128v-128h-128v128h-128v-128h-128z" />
<glyph unicode="&#xdc;" d="M128 0l-128 128v768h128v-768h640v768h128v-768l-128 -128h-640zM256 1024v128h128v-128h-128zM512 1024v128h128v-128h-128z" />
<glyph unicode="&#xdd;" d="M384 0v384h-256l-128 128v384h128v-384h640v384h128v-384l-128 -128h-256v-384h-128zM256 1024l256 256h128l-256 -256h-128z" />
<glyph unicode="&#xde;" d="M768 256v384h-640v-384h640zM0 0v896h128v-128h640l128 -128v-384l-128 -128h-640v-128h-128z" />
<glyph unicode="&#xdf;" d="M0 0v768l128 128h384l128 -128v-256h128l128 -128v-256l-128 -128h-512v128h512v256h-128l-128 128v256h-384v-768h-128z" />
<glyph unicode="&#xe0;" d="M768 128v128h-640v-128h640zM128 0l-128 128v128l128 128h640v128h-512v128h512l128 -128v-512h-768zM512 768l-256 256h128l256 -256h-128z" />
<glyph unicode="&#xe1;" d="M768 128v128h-640v-128h640zM128 0l-128 128v128l128 128h640v128h-512v128h512l128 -128v-512h-768zM256 768l256 256h128l-256 -256h-128z" />
<glyph unicode="&#xe2;" d="M768 128v128h-640v-128h640zM128 0l-128 128v128l128 128h640v128h-512v128h512l128 -128v-512h-768zM256 768v128l128 128h128l128 -128v-128h-128v128h-128v-128h-128z" />
<glyph unicode="&#xe3;" d="M768 128v128h-640v-128h640zM128 0l-128 128v128l128 128h640v128h-512v128h512l128 -128v-512h-768zM128 768v128l128 128h128l128 -128h128v128h128v-128l-128 -128h-128l-128 128h-128v-128h-128z" />
<glyph unicode="&#xe4;" d="M768 128v128h-640v-128h640zM128 0l-128 128v128l128 128h640v128h-512v128h512l128 -128v-512h-768zM256 768v128h128v-128h-128zM512 768v128h128v-128h-128z" />
<glyph unicode="&#xe5;" d="M768 128v128h-640v-128h640zM128 0l-128 128v128l128 128h640v128h-512v128h512l128 -128v-512h-768zM512 896v128h-128v-128h128zM384 768l-128 128v128l128 128h128l128 -128v-128l-128 -128h-128z" />
<glyph unicode="&#xe6;" horiz-adv-x="1280" d="M512 128v128h-384v-128h384zM1024 384v128h-384v-128h384zM128 0l-128 128v128l128 128h384v128h-256v128h768l128 -128v-128l-128 -128h-384v-128h384v-128h-896z" />
<glyph unicode="&#xe7;" horiz-adv-x="896" d="M256 -256v128h128l-128 128h-128l-128 128v384l128 128h640v-128h-640v-384h640v-128h-384l128 -128l-128 -128h-128z" />
<glyph unicode="&#xe8;" d="M768 384v128h-640v-128h640zM128 0l-128 128v384l128 128h640l128 -128v-128l-128 -128h-640v-128h512v-128h-512zM512 768l-256 256h128l256 -256h-128z" />
<glyph unicode="&#xe9;" d="M768 384v128h-640v-128h640zM128 0l-128 128v384l128 128h640l128 -128v-128l-128 -128h-640v-128h512v-128h-512zM256 768l256 256h128l-256 -256h-128z" />
<glyph unicode="&#xea;" d="M768 384v128h-640v-128h640zM128 0l-128 128v384l128 128h640l128 -128v-128l-128 -128h-640v-128h512v-128h-512zM256 768v128l128 128h128l128 -128v-128h-128v128h-128v-128h-128z" />
<glyph unicode="&#xeb;" d="M768 384v128h-640v-128h640zM128 0l-128 128v384l128 128h640l128 -128v-128l-128 -128h-640v-128h512v-128h-512zM256 768v128h128v-128h-128zM512 768v128h128v-128h-128z" />
<glyph unicode="&#xec;" horiz-adv-x="256" d="M0 0v640h128v-640h-128zM128 768l-256 256h128l256 -256h-128z" />
<glyph unicode="&#xed;" horiz-adv-x="256" d="M0 0v640h128v-640h-128zM-128 768l256 256h128l-256 -256h-128z" />
<glyph unicode="&#xee;" horiz-adv-x="256" d="M0 0v640h128v-640h-128zM-128 768v128l128 128h128l128 -128v-128h-128v128h-128v-128h-128z" />
<glyph unicode="&#xef;" horiz-adv-x="256" d="M0 0v640h128v-640h-128zM-128 768v128h128v-128h-128zM128 768v128h128v-128h-128z" />
<glyph unicode="&#xf0;" d="M768 128v128h-640v-128h640zM128 0l-128 128v128l128 128h640v128h-256l128 128l-128 128v128h256l-128 -128l256 -256v-384l-128 -128h-640z" />
<glyph unicode="&#xf1;" d="M0 0v640h768l128 -128v-512h-128v512h-640v-512h-128zM128 768v128l128 128h128l128 -128h128v128h128v-128l-128 -128h-128l-128 128h-128v-128h-128z" />
<glyph unicode="&#xf2;" d="M768 128v384h-640v-384h640zM128 0l-128 128v384l128 128h640l128 -128v-384l-128 -128h-640zM512 768l-256 256h128l256 -256h-128z" />
<glyph unicode="&#xf3;" d="M768 128v384h-640v-384h640zM128 0l-128 128v384l128 128h640l128 -128v-384l-128 -128h-640zM256 768l256 256h128l-256 -256h-128z" />
<glyph unicode="&#xf4;" d="M768 128v384h-640v-384h640zM128 0l-128 128v384l128 128h640l128 -128v-384l-128 -128h-640zM256 768v128l128 128h128l128 -128v-128h-128v128h-128v-128h-128z" />
<glyph unicode="&#xf5;" horiz-adv-x="2176" d="M768 128v384h-640v-384h640zM128 0l-128 128v384l128 128h640l128 -128v-384l-128 -128h-640zM1408 896v128l128 128h128l128 -128h128v128h128v-128l-128 -128h-128l-128 128h-128v-128h-128z" />
<glyph unicode="&#xf6;" d="M768 128v384h-640v-384h640zM128 0l-128 128v384l128 128h640l128 -128v-384l-128 -128h-640zM256 768v128h128v-128h-128zM512 768v128h128v-128h-128z" />
<glyph unicode="&#xf7;" d="M384 128v128h128v-128h-128zM0 384v128h896v-128h-896zM384 640v128h128v-128h-128z" />
<glyph unicode="&#xf8;" d="M128 128l384 384h-384v-384v0zM768 128v384l-384 -384h384zM128 0l-128 128v384l128 128h640l128 -128v-384l-128 -128h-640z" />
<glyph unicode="&#xf9;" d="M128 0l-128 128v512h128v-512h640v512h128v-640h-768zM512 768l-256 256h128l256 -256h-128z" />
<glyph unicode="&#xfa;" d="M128 0l-128 128v512h128v-512h640v512h128v-640h-768zM256 768l256 256h128l-256 -256h-128z" />
<glyph unicode="&#xfb;" d="M128 0l-128 128v512h128v-512h640v512h128v-640h-768zM256 768v128l128 128h128l128 -128v-128h-128v128h-128v-128h-128z" />
<glyph unicode="&#xfc;" d="M128 0l-128 128v512h128v-512h640v512h128v-640h-768zM256 768v128h128v-128h-128zM512 768v128h128v-128h-128z" />
<glyph unicode="&#xfd;" d="M256 -256v128h512v128h-640l-128 128v512h128v-512h640v512h128v-768l-128 -128h-512zM256 768l256 256h128l-256 -256h-128z" />
<glyph unicode="&#xfe;" d="M768 256v128h-640v-128h640zM0 0v640h128v-128h640l128 -128v-128l-128 -128h-640v-128h-128z" />
<glyph unicode="&#xff;" d="M256 -256v128h512v128h-640l-128 128v512h128v-512h640v512h128v-768l-128 -128h-512zM256 768v128h128v-128h-128zM512 768v128h128v-128h-128z" />
<glyph unicode="&#x152;" horiz-adv-x="1408" d="M512 128v640h-384v-640h384zM128 0l-128 128v640l128 128h896v-128h-384v-256h512v-128h-512v-256h640v-128h-1152z" />
<glyph unicode="&#x153;" horiz-adv-x="1280" d="M512 128v384h-384v-384h384zM1024 384v128h-384v-128h384zM128 0l-128 128v384l128 128h896l128 -128v-128l-128 -128h-384v-128h384v-128h-896z" />
<glyph unicode="&#x178;" d="M384 0v384h-256l-128 128v384h128v-384h640v384h128v-384l-128 -128h-256v-384h-128zM256 1024v128h128v-128h-128zM512 1024v128h128v-128h-128z" />
<glyph unicode="&#x2000;" horiz-adv-x="704" />
<glyph unicode="&#x2001;" horiz-adv-x="1408" />
<glyph unicode="&#x2002;" horiz-adv-x="704" />
<glyph unicode="&#x2003;" horiz-adv-x="1408" />
<glyph unicode="&#x2004;" horiz-adv-x="469" />
<glyph unicode="&#x2005;" horiz-adv-x="352" />
<glyph unicode="&#x2006;" horiz-adv-x="234" />
<glyph unicode="&#x2007;" horiz-adv-x="234" />
<glyph unicode="&#x2008;" horiz-adv-x="176" />
<glyph unicode="&#x2009;" horiz-adv-x="281" />
<glyph unicode="&#x200a;" horiz-adv-x="78" />
<glyph unicode="&#x2010;" horiz-adv-x="640" d="M0 384v128h512v-128h-512z" />
<glyph unicode="&#x2011;" horiz-adv-x="640" d="M0 384v128h512v-128h-512z" />
<glyph unicode="&#x2012;" horiz-adv-x="640" d="M0 384v128h512v-128h-512z" />
<glyph unicode="&#x2013;" horiz-adv-x="1152" d="M0 384v128h1024v-128h-1024z" />
<glyph unicode="&#x2014;" horiz-adv-x="768" d="M0 384v128h640v-128h-640z" />
<glyph unicode="&#x2018;" horiz-adv-x="256" d="M0 640v128l128 128v-256h-128z" />
<glyph unicode="&#x2019;" horiz-adv-x="256" d="M0 640v256h128v-128l-128 -128v0z" />
<glyph unicode="&#x201a;" horiz-adv-x="256" d="M0 -128v256h128v-128l-128 -128v0z" />
<glyph unicode="&#x201c;" horiz-adv-x="384" d="M0 640v128l128 128v-128l128 128v-256h-256z" />
<glyph unicode="&#x201d;" horiz-adv-x="384" d="M0 640v256h256v-128l-128 -128v128l-128 -128v0z" />
<glyph unicode="&#x201e;" horiz-adv-x="512" d="M0 -128v256h128v-128l-128 -128v0zM256 -128v256h128v-128l-128 -128v0z" />
<glyph unicode="&#x2022;" horiz-adv-x="512" d="M0 256v256l128 128h256v-384h-384z" />
<glyph unicode="&#x2026;" horiz-adv-x="768" d="M0 0v128h128v-128h-128zM256 0v128h128v-128h-128zM512 0v128h128v-128h-128z" />
<glyph unicode="&#x202f;" horiz-adv-x="281" />
<glyph unicode="&#x2039;" horiz-adv-x="640" d="M384 0l-384 384l384 384h128l-384 -384l384 -384h-128z" />
<glyph unicode="&#x203a;" horiz-adv-x="640" d="M0 0l384 384l-384 384h128l384 -384l-384 -384h-128z" />
<glyph unicode="&#x205f;" horiz-adv-x="352" />
<glyph unicode="&#x20ac;" d="M256 0l-128 128v128h-128v128h128v128h-128v128h128v128l128 128h640v-128h-640v-128h512v-128h-512v-128h512l-128 -128h-384v-128h640v-128h-640z" />
<glyph unicode="&#x2122;" horiz-adv-x="896" d="M128 640v256h-128v128h768v-384h-128v256l-64 -128l-64 128v-256h-128v256h-128v-256h-128z" />
<glyph unicode="&#xe000;" horiz-adv-x="640" d="M0 640h640v-640h-640v640z" />
<glyph unicode="&#xfb01;" horiz-adv-x="640" d="M128 0v512h-128v128h128v128l128 128h256v-128h-256v-128h256v-640h-128v512h-128v-512h-128z" />
<glyph unicode="&#xfb02;" horiz-adv-x="640" d="M384 640v128h-128v-128h128zM128 0v512h-128v128h128v128l128 128h256v-896h-128v512h-128v-512h-128z" />
</font>
</defs>
</svg>
